Next Page » | The Doctor, th season 06 episode 100 | Omar Doom

Скачать через торрент Спецгруппа 26 26 грабителей Фильм бесплатно в хорошем качестве torrent

Скачивайте на UnionPeer.org фильмы через торрент без регистрации. Новинки кино в хорошем качестве через торрент. На UnionPeer.org можно скачать через торрент фильмы 2014 и 2015 годов. Самые новые фильмы.

Скачать торрент Спецгруппа 26 26 грабителей бесплатно через .torrent фильм мультфильм сериал

Статистика раздачи
Размер:  9.88 GB   |    Зарегистрирован:  5 лет 2 месяца   |    .torrent скачан:  10 раз   |   
Раздают:  1  
   
загрузка...
 
Автор Сообщение

Galfimbul

avatar Galfimbul


Спецгруппа 26 / 26 грабителей / Special 26 / Special Chabbis

Страна: Индия
Жанр: криминал, драма
Год выпуска: 2013
Продолжительность: 02:23:34

Перевод 1: Профессиональный (многоголосый закадровый) BaibaKo
Перевод 2: Любительский (многоголосый закадровый)
Cубтитры: русские (полные, на песни), английские
Оригинальная аудиодорожка: английский



Режиссер: Нирадж Пандей / Niradg Pandey

В ролях: Акшай Кумар, Манодж Баджпаи, Анупам Кхер, Джимми Шергилл, Дип Радж Рана, Дивья Датта, Ниру Баджва, Каджал, Випин Шарма, Кишор Кадам



Описание: Банда грабителей, состоящая из 26 человек, куда вошли и сотрудники Центрального бюро расследований CBI, своё первое ограбление совершают в Дели. В сопровождении настоящих полицейских, у которых даже не возникло никаких подозрений, они под видом офицеров CBI проникают в дом коррумпированного министра и забирают с собой увесистые пачки денег. Со временем, после очередного аналогичного ограбления в Калькутте, CBI становится ясно, что под его прикрытием орудует банда грабителей. Ранбира и Шанти отстраняют от службы. Новое ограбление должно состоятся в Мумбаи 19 марта 2008 года.



Перевод субтитров на русский язык: Rummata
Перевод 2: Александр Нелюбин, Ирина Грачева, Марина Комчарукова, Андрей Хомяков, Александр Галушко и Николай Ерофеев

Тип релиза: BDRip 720p
Контейнер: MKV

Видео: H264 / NTSC 16:9 / 1280x552 (2,35:1) / 7314 kbps / 24 fps / [email protected]
Аудио 1: Russian / AC3 / 48 kHz / 5.1 Ch / 384 kbps / 16 bit / MVO / BaibaKo
Аудио 2: Russian / AC3 / 48 kHz / 5.1 Ch / 448 kbps / 16 bit / MVO
Аудио 3: Hindi / DTS / 48 kbps / 5.1 Ch / 1510 kbps / 24 bit / Original
Формат субтитров: softsub (SRT)
Навигация по главам: есть
Общее
Уникальный идентификатор : 204807036058419170266529197467516976133 (0x9A14667DC555322A95B3FB4ED28ABC05)
Полное имя : W:\BDRip 720p\Special Chabbis.2013.BDRip.720p.mkv
Формат : Matroska
Версия формата : Version 4 / Version 2
Размер файла : 9,88 Гбайт
Продолжительность : 2 ч. 23 м.
Общий поток : 9852 Кбит/сек
Дата кодирования : UTC 2013-05-01 17:08:06
Программа кодирования : mkvmerge v6.2.0 (''Promised Land'') built on Apr 28 2013 12:22:01
Библиотека кодирования : libebml v1.3.0 + libmatroska v1.4.0

Видео
Идентификатор : 1
Формат : AVC
Формат/Информация : Advanced Video Codec
Профиль формата : [email protected]
Параметр CABAC формата : Да
Параметр ReFrames формата : 11 кадров
Идентификатор кодека : V_MPEG4/ISO/AVC
Битрейт : 7314 Кбит/сек
Ширина : 1280 пикселей
Высота : 552 пикселя
Соотношение сторон : 2,35:1
Режим частоты кадров : Переменный
Частота кадров в оригинале : 24,000 кадра/сек
Цветовое пространство : YUV
Субдискретизация насыщенности : 4:2:0
Битовая глубина : 8 бит
Тип развёртки : Прогрессивная
Библиотека кодирования : x264 core 132 r2309 3b1f1f7
Настройки программы : cabac=1 / ref=11 / deblock=1:-3:-3 / analyse=0x3:0x133 / me=tesa / subme=11 / psy=1 / psy_rd=1.10:0.00 / mixed_ref=1 / me_range=16 / chroma_me=1 / trellis=2 / 8x8dct=1 / cqm=0 / deadzone=21,11 / fast_pskip=0 / chroma_qp_offset=-2 / threads=12 / lookahead_threads=2 / sliced_threads=0 / nr=0 / decimate=1 / interlaced=0 / bluray_compat=0 / constrained_intra=0 / bframes=9 / b_pyramid=2 / b_adapt=2 / b_bias=0 / direct=3 / weightb=1 / open_gop=0 / weightp=2 / keyint=250 / keyint_min=24 / scenecut=40 / intra_refresh=0 / rc=crf / mbtree=0 / crf=15.6 / qcomp=0.75 / qpmin=0 / qpmax=69 / qpstep=4 / ip_ratio=1.40 / pb_ratio=1.30 / aq=1:0.70
Язык : Hindi
Default : Да
Forced : Нет
Коэффициенты матрицы : BT.709

Аудио #1
Идентификатор : 2
Формат : AC-3
Формат/Информация : Audio Coding 3
Расширение режима : CM (complete main)
Параметр Endianness формата : Big
Идентификатор кодека : A_AC3
Продолжительность : 2 ч. 23 м.
Вид битрейта : Постоянный
Битрейт : 384 Кбит/сек
Каналы : 6 каналов
Расположение каналов : Front: L C R, Side: L R, LFE
Частота : 48,0 КГц
Битовая глубина : 16 бит
Метод сжатия : С потерями
Размер потока : 394 Мбайт (4%)
Заголовок : MVO / RUS#1
Язык : Russian
Default : Да
Forced : Нет

Аудио #2
Идентификатор : 3
Формат : AC-3
Формат/Информация : Audio Coding 3
Расширение режима : CM (complete main)
Параметр Endianness формата : Big
Идентификатор кодека : A_AC3
Продолжительность : 2 ч. 23 м.
Вид битрейта : Постоянный
Битрейт : 448 Кбит/сек
Каналы : 6 каналов
Расположение каналов : Front: L C R, Side: L R, LFE
Частота : 48,0 КГц
Битовая глубина : 16 бит
Метод сжатия : С потерями
Размер потока : 460 Мбайт (5%)
Заголовок : MVO / RUS#2
Язык : Russian
Default : Нет
Forced : Нет

Аудио #3
Идентификатор : 4
Формат : DTS
Формат/Информация : Digital Theater Systems
Идентификатор кодека : A_DTS
Продолжительность : 2 ч. 23 м.
Вид битрейта : Постоянный
Битрейт : 1510 Кбит/сек
Каналы : 6 каналов
Расположение каналов : Front: L C R, Side: L R, LFE
Частота : 48,0 КГц
Битовая глубина : 24 бит
Метод сжатия : С потерями
Размер потока : 1,51 Гбайт (15%)
Заголовок : Original
Язык : Hindi
Default : Нет
Forced : Нет

Текст #1
Идентификатор : 5
Формат : UTF-8
Идентификатор кодека : S_TEXT/UTF8
Идентификатор кодека/Информация : UTF-8 Plain Text
Заголовок : Full
Язык : Russian
Default : Нет
Forced : Нет

Текст #2
Идентификатор : 6
Формат : UTF-8
Идентификатор кодека : S_TEXT/UTF8
Идентификатор кодека/Информация : UTF-8 Plain Text
Заголовок : Forced
Язык : Russian
Default : Да
Forced : Нет

Текст #3
Идентификатор : 7
Формат : UTF-8
Идентификатор кодека : S_TEXT/UTF8
Идентификатор кодека/Информация : UTF-8 Plain Text
Заголовок : ENG
Язык : English
Default : Нет
Forced : Нет

Меню
00:00:00.000 : en:00:00:00.000
00:05:12.000 : en:00:05:12.000
00:19:27.708 : en:00:19:27.708
00:28:12.750 : en:00:28:12.750
00:32:35.833 : en:00:32:35.833
00:35:04.500 : en:00:35:04.500
00:40:45.625 : en:00:40:45.625
00:49:43.542 : en:00:49:43.542
00:56:38.833 : en:00:56:38.833
01:04:07.167 : en:01:04:07.167
01:12:22.625 : en:01:12:22.625
01:16:24.500 : en:01:16:24.500
01:27:04.833 : en:01:27:04.833
01:40:52.917 : en:01:40:52.917
02:03:10.042 : en:02:03:10.042
02:20:03.292 : en:02:20:03.292


Трекер:  [ 02-Май-2013 19:03 ]

  

Скачать .torrent

Размер .torrent файла 50 KB


Размер: 9.88 GB
Хэш (hash) релиза: adff8ea64bf403ff9f1e9aa1ea47d063ba804fc3
Подписка на обновления:

Еще никто не оставлял запись к записи скачать торрент Спецгруппа 26 26 грабителей . Будь первым!

!Обратная связь