17 de maio de 2018 | Chapter 22 | Morris Carnovsky

Скачать через торрент Джентльмен грабитель Electric Slide Фильм бесплатно в хорошем качестве torrent

Скачивайте на UnionPeer.org фильмы через торрент без регистрации. Новинки кино в хорошем качестве через торрент. На UnionPeer.org можно скачать через торрент фильмы 2014 и 2015 годов. Самые новые фильмы.

Скачать торрент Джентльмен грабитель Electric Slide бесплатно через .torrent фильм мультфильм сериал

Статистика раздачи
Размер:  4.71 GB   |    Зарегистрирован:  2 месяца 10 дней   |    .torrent скачан:  33 раза   |   
Раздают:  1  
   
загрузка...
 
Автор Сообщение

Galfimbul

avatar Galfimbul


Джентльмен грабитель / Electric Slide
Страна: США
Студии: Myriad Pictures Inc., Killer Films, Media House Capital
Жанр: Боевик, триллер, драма, криминал, биография
Год выпуска: 2014
Дата мировой премьеры: 22 апреля 2014
Дата российской премьеры: 7 мая 2015, «Cinema Prestige»
Дата выхода DVD релиза: 1 октября 2015, «Cinema Prestige»
Продолжительность: 01:31:05
Перевод: Профессиональный (дублированный) [Лицензия]
Субтитры: Русские
Оригинальная аудиодорожка: Английская
Режиссер: Тристан Паттерсон / Tristan Patterson
Продюсеры: Кирк д’Амико, Ганс С. Риттер, Кристин Вачон
Актеры: Джим Стёрджесс, Изабель Лукас, Хлоя Севиньи, Патриция Аркетт, Кристофер Ламберт, Кейт Микуччи, Кортни Палм, Констанс Ву, Винесса Шоу, Мэгалин Эчиканвоке
Описание:
Речь в фильме пойдет об Эдди Додсоне, владельце мебельного магазина на Мелроуз Авеню в Лос-Анджелесе. Он был знаком со многими знаменитостями, вёл праздный образ жизни — веселился и устраивал вечеринки. Но однажды он влюбился, и чтобы произвести впечатление на любимую девушку, решил ограбить банк.

Доп. материалы: Трейлер, Анонсы

Качество: DVD9 R5
Формат: DVD-Video

Видео: MPEG-2, [email protected] (PAL 16:9), ~5700 Кбит/сек
Аудио 1: AC3 5.1, 384 Кбит/сек [Русский - дублированный]
Аудио 2: AC3 5.1, 384 Кбит/сек [Английский - оригинал]
Title: Electric Slide (2014) DVD9 R5
Size: 4.71 Gb ( 4 936 912,00 KBytes ) - DVD-9
Enabled regions: 1, 2, 3, 4, 5, 6, 7, 8

VTS_01 :
Play Length: 00:00:10
Video: PAL 16:9 (720x576) VBR, Auto Letterboxed

VTS_02 :
Play Length: 00:00:07
Video: PAL 16:9 (720x576) VBR, Auto Letterboxed
Audio:
English (Dolby AC3, 6 ch)

VTS_03 :
Play Length: 00:02:14
Video: PAL 16:9 (720x576) VBR, Auto Letterboxed
Audio:
Russian (Dolby AC3, 2 ch)
Russian (Dolby AC3, 2 ch)

VTS_04 :
Play Length: 00:02:19
Video: PAL 16:9 (720x576) VBR, Auto Letterboxed
Audio:
Russian (Dolby AC3, 6 ch)
Russian (Dolby AC3, 6 ch)

VTS_05 :
Play Length: 00:01:56
Video: PAL 16:9 (720x576) VBR, Auto Letterboxed
Audio:
Russian (Dolby AC3, 6 ch)
Russian (Dolby AC3, 6 ch)

VTS_06 :
Play Length: 00:01:58
Video: PAL 16:9 (720x576) VBR, Auto Letterboxed
Audio:
Russian (Dolby AC3, 6 ch)
Russian (Dolby AC3, 6 ch)

VTS_07 :
Play Length: 00:02:00
Video: PAL 16:9 (720x576) VBR, Auto Letterboxed
Audio:
Russian (Dolby AC3, 2 ch)
Russian (Dolby AC3, 2 ch)

VTS_08 :
Play Length: 01:31:05
Video: PAL 16:9 (720x576) VBR, Auto Pan&Scan, Auto Letterboxed
Audio:
Russian, AC3, 3/2 (L,C,R,SL,SR)+LFE ch, 384 kbps, Delay 0 mSec
English, AC3, 3/2 (L,C,R,SL,SR)+LFE ch, 384 kbps, Delay 0 mSec

Subtitles:
Russian
Общее
Полное имя : V:\Torrents\Electric Slide (2014) DVD9 R5\VIDEO_TS\VTS_08_1.VOB
Формат : MPEG-PS
Размер файла : 1024 Мбайт
Продолжительность : 21 м. 39 с.
Режим общего битрейта : Переменный
Общий поток : 6609 Кбит/сек

Видео
Идентификатор : 224 (0xE0)
Формат : MPEG Video
Версия формата : Version 2
Профиль формата : [email protected]
Настройки формата : BVOP
Параметр BVOP формата : Да
Параметр матрицы формата : По умолчанию
Параметр GOP формата : M=3, N=12
Продолжительность : 21 м. 39 с.
Вид битрейта : Переменный
Битрейт : 5709 Кбит/сек
Максимальный битрейт : 7000 Кбит/сек
Ширина : 720 пикселей
Высота : 576 пикселей
Соотношение сторон : 16:9
Частота кадров : 25,000 кадров/сек
Стандарт вещания : PAL
Цветовое пространство : YUV
Субдискретизация насыщенности : 4:2:0
Битовая глубина : 8 бит
Тип развёртки : Прогрессивная
Метод сжатия : С потерями
Бит/(Пиксели*Кадры) : 0.551
Временной код первого кадра : 01:00:00:00
Оригинал временного кода : Group of pictures header
GOP, открыто/закрыто : Открыто
GOP, открыто/закрыто на первом кадре : Закрыто
Размер потока : 884 Мбайт (86%)

Аудио #1
Идентификатор : 189 (0xBD)-128 (0x80)
Формат : AC-3
Формат/Информация : Audio Coding 3
Параметр Endianness формата : Big
Режим смешивания : DVD-Video
Продолжительность : 21 м. 39 с.
Вид битрейта : Постоянный
Битрейт : 384 Кбит/сек
Каналы : 6 каналов
Расположение каналов : Front: L C R, Side: L R, LFE
Частота : 48,0 КГц
Частота кадров : 31,250 кадров/сек (1536 SPF)
Битовая глубина : 16 бит
Метод сжатия : С потерями
Размер потока : 59,5 Мбайт (6%)
ServiceKind/String : Complete Main

Аудио #2
Идентификатор : 189 (0xBD)-129 (0x81)
Формат : AC-3
Формат/Информация : Audio Coding 3
Параметр Endianness формата : Big
Режим смешивания : DVD-Video
Продолжительность : 21 м. 39 с.
Вид битрейта : Постоянный
Битрейт : 384 Кбит/сек
Каналы : 6 каналов
Расположение каналов : Front: L C R, Side: L R, LFE
Частота : 48,0 КГц
Частота кадров : 31,250 кадров/сек (1536 SPF)
Битовая глубина : 16 бит
Метод сжатия : С потерями
Размер потока : 59,5 Мбайт (6%)
ServiceKind/String : Complete Main

Меню


За предоставленный DVD спасибо большое AKIM2B
Раздаю с 10:00 до 23:00 до 10 скачавших.

Трекер:  [ 06-Май-2018 21:30 ]

  

Скачать .torrent

Размер .torrent файла 26 KB


Размер: 4.71 GB
Хэш (hash) релиза: 2bea279ae6db7cbc4530354b08f6270cc3bad4e8
Подписка на обновления:

Еще никто не оставлял запись к записи скачать торрент Джентльмен грабитель Electric Slide . Будь первым!

!Обратная связь