Kumple / Skins (2007-2011) | Deadwood (7) | 67% Jason Bourne

Скачать через торрент Стань легендой! Бигфут Младший The Son of Bigfoot Фильм бесплатно в хорошем качестве torrent

Скачивайте на UnionPeer.org фильмы через торрент без регистрации. Новинки кино в хорошем качестве через торрент. На UnionPeer.org можно скачать через торрент фильмы 2014 и 2015 годов. Самые новые фильмы.

Скачать торрент Стань легендой! Бигфут Младший The Son of Bigfoot бесплатно через .torrent фильм мультфильм сериал

Статистика раздачи
Размер:  8.81 GB   |    Зарегистрирован:  9 месяцев   |    .torrent скачан:  186 раз   |   
Раздают:  1  
   
загрузка...
 
Автор Сообщение

Galfimbul

avatar Galfimbul


Стань легендой! Бигфут Младший /The Son of Bigfoot

Год выхода: 2017
Жанр: Мультфильм, комедия, семейный
Режиссер: Жереми Дегрусон, Бен Стассен
В ролях: Синда Адамс, Боб Барлен, Кэллан Брункер, Джои Камен, Дэвид Эпштейн, Кристофер Л. Парсон, Джо Томас

О фильме:
Обычный подросток по имени Адам отправляется на поиски своего давно пропавшего отца и попадает в приключение мифических масштабов. Его мир переворачивается вверх дном, когда оказывается, что в нем течет кровь последних легендарных хранителей леса — бигфутов. Теперь ему открыты такие способности как суперскорость, живительное прикосновение и возможность понимать язык животных.



Страна: Франция, Бельгия
Студия: Belga Productions, Illuminata Pictures, nWave Pictures, Studio Canal, Waterman Entertainment
Продолжительность: 01:32:14
Перевод: Дублированный | iTunes

Файл
Качество: BDRip 1080p
Видео: MPEG-4 AVC, 1920x1080, 12.6 Mbit/s, 23.976 fps
Звук:
Аудио #01: 48 kHz, AC3, 5.1, 384 Kbps | Дублированный | iTunes | RUS |
Аудио #02: 48 kHz, AC3, 5.1, 640 Kbps | Оригинал | ENG |

General
Unique ID : 203226116744426253229497701942337939367 (0x98E3ED26B6839F5F89F75FA27FA727A7)
Complete name : G:VideoSSDThe.Son.of.Bigfoot.2017.BDRip.1080p.ExKinoRay.mkv
Format : Matroska
Format version : Version 4 / Version 2
File size : 8.81 GiB
Duration : 1 h 32 min
Overall bit rate : 13.7 Mb/s
Movie name : The Son of Bigfoot 2017 from ExKinoRay
Encoded date : UTC 2017-12-13 23:51:14
Writing application : mkvmerge v18.0.0 ('Apricity') 64-bit
Writing library : libebml v1.3.5 + libmatroska v1.4.8

Video
ID : 1
Format : AVC
Format/Info : Advanced Video Codec
Format profile : [email protected]
Format settings : CABAC / 4 Ref Frames
Format settings, CABAC : Yes
Format settings, RefFrames : 4 frames
Codec ID : V_MPEG4/ISO/AVC
Duration : 1 h 32 min
Bit rate : 12.6 Mb/s
Width : 1 920 pixels
Height : 1 080 pixels
Display aspect ratio : 16:9
Frame rate mode : Constant
Frame rate : 23.976 (24000/1001) FPS
Color space : YUV
Chroma subsampling : 4:2:0
Bit depth : 8 bits
Scan type : Progressive
Bits/(Pixel*Frame) : 0.254
Stream size : 8.15 GiB (92%)
Writing library : x264 core 152 r2851 ba24899
Encoding settings : cabac=1 / ref=4 / deblock=1:-3:-3 / analyse=0x3:0x113 / me=umh / subme=11 / psy=1 / psy_rd=1.05:0.00 / mixed_ref=1 / me_range=32 / chroma_me=1 / trellis=2 / 8x8dct=1 / cqm=0 / deadzone=21,11 / fast_pskip=0 / chroma_qp_offset=-2 / threads=12 / lookahead_threads=2 / sliced_threads=0 / nr=0 / decimate=0 / interlaced=0 / bluray_compat=0 / constrained_intra=0 / bframes=7 / b_pyramid=2 / b_adapt=2 / b_bias=0 / direct=3 / weightb=1 / open_gop=0 / weightp=2 / keyint=240 / keyint_min=23 / scenecut=40 / intra_refresh=0 / rc_lookahead=100 / rc=2pass / mbtree=0 / bitrate=12640 / ratetol=1.0 / qcomp=0.65 / qpmin=0 / qpmax=69 / qpstep=4 / cplxblur=20.0 / qblur=0.5 / vbv_maxrate=50000 / vbv_bufsize=62500 / nal_hrd=none / filler=0 / ip_ratio=1.30 / pb_ratio=1.20 / aq=1:0.85
Language : English
Default : Yes
Forced : No
Color range : Limited
Color primaries : BT.709
Transfer characteristics : BT.709
Matrix coefficients : BT.709

Audio #1
ID : 2
Format : AC-3
Format/Info : Audio Coding 3
Format settings, Endianness : Big
Codec ID : A_AC3
Duration : 1 h 32 min
Bit rate mode : Constant
Bit rate : 384 kb/s
Channel(s) : 6 channels
Channel positions : Front: L C R, Side: L R, LFE
Sampling rate : 48.0 kHz
Frame rate : 31.250 FPS (1536 SPF)
Bit depth : 16 bits
Compression mode : Lossy
Stream size : 253 MiB (3%)
Title : iTunes
Language : Russian
Service kind : Complete Main
Default : Yes
Forced : No

Audio #2
ID : 3
Format : AC-3
Format/Info : Audio Coding 3
Format settings, Endianness : Big
Codec ID : A_AC3
Duration : 1 h 32 min
Bit rate mode : Constant
Bit rate : 640 kb/s
Channel(s) : 6 channels
Channel positions : Front: L C R, Side: L R, LFE
Sampling rate : 48.0 kHz
Frame rate : 31.250 FPS (1536 SPF)
Bit depth : 16 bits
Compression mode : Lossy
Stream size : 422 MiB (5%)
Title : Original
Language : English
Service kind : Complete Main
Default : No
Forced : No

Menu
00:00:00.000 : en:00:00:00.000
00:07:24.194 : en:00:07:24.194
00:14:53.768 : en:00:14:53.768
00:22:11.789 : en:00:22:11.789
00:30:27.492 : en:00:30:27.492
00:39:25.613 : en:00:39:25.613
00:48:17.269 : en:00:48:17.269
00:55:43.674 : en:00:55:43.674
01:02:39.130 : en:01:02:39.130
01:11:40.213 : en:01:11:40.213
01:20:37.082 : en:01:20:37.082
01:27:56.521 : en:01:27:56.521
Источник http://arutor.org

Трекер:  [ 14-Дек-2017 03:00 ]

  

Скачать .torrent

Размер .torrent файла 44 KB


Размер: 8.81 GB
Хэш (hash) релиза: 35be494b02e2b74fd35dc931cafe7bb0e9a59b7e
Подписка на обновления:

Торренты, похожие на Стань легендой! Бигфут Младший The Son of Bigfoot скачать торрент

Форум Название Автор Размер S L Добавлен
Мультфильмы 2016-2018 (Новинки мультфильмов) ·· Стань легендой! Бигфут Младший / The Son of Bigfoot (Жереми Дегрусон / Jeremy Degruson, Бен Стассен / Ben Stassen) [2017, Франция, Бельгия, мультфильм, фэнтези, комедия, BDRip 1080p] Лицензия Galfimbul 61894390505.76 GB 0 0 1517836236

16:10

5-Фев-18

Мультфильмы до 2016 ·· Стань легендой! Бигфут Младший / The Son of Bigfoot (Жереми Дегрусон / Jeremy Degruson, Бен Стассен / Ben Stassen) [2017, Франция, Бельгия, мультфильм, фэнтези, комедия, BDRip-AVC] Dub Galfimbul 782787792747 MB 0 0 1517261839

00:37

30-Янв-18

Мультфильмы до 2016 ·· Стань легендой! Бигфут Младший / The Son of Bigfoot (Жереми Дегрусон / Jeremy Degruson, Бен Стассен / Ben Stassen) [2017, Франция, Бельгия, мультфильм, фэнтези, комедия, BDRip-AVC] Dub + Original (eng) + Sub (eng) Galfimbul 23440367082.18 GB 0 0 1516655208

00:06

23-Янв-18

Мультфильмы до 2016 ·· Стань легендой! Бигфут Младший / The Son of Bigfoot (Жереми Дегрусон / Jeremy Degruson, Бен Стассен / Ben Stassen) [2017, Франция, Бельгия, мультфильм, фэнтези, комедия, BDRip-AVC] Dub Galfimbul 15456645551.44 GB 0 0 1516640850

20:07

22-Янв-18

Мультфильмы до 2016 ·· Стань легендой! Бигфут Младший / The Son of Bigfoot (Жереми Дегрусон / Jeremy Degruson, Бен Стассен / Ben Stassen) [2017, Франция, Бельгия, мультфильм, комедия, Blu-ray disc 1080p] [RUS] Galfimbul 1996119102418.59 GB 0 0 1516532784

14:06

21-Янв-18

Мультфильмы до 2016 ·· Стань легендой! Бигфут Младший / The Son of Bigfoot (Жереми Дегрусон / Jeremy Degruson, Бен Стассен / Ben Stassen) [2017, Франция, Бельгия, мультфильм, комедия, BDRip-AVC] Dub Galfimbul 15631400241.46 GB 0 0 1513283804

23:36

14-Дек-17

Мультфильмы до 2016 ·· Стань легендой! Бигфут Младший / The Son of Bigfoot (Жереми Дегрусон / Jeremy Degruson, Бен Стассен / Ben Stassen) [2017, Франция, Бельгия, мультфильм, комедия, HDRip] Dub (iTunes) Galfimbul 15255531521.42 GB 0 0 1513222601

06:36

14-Дек-17

Мультфильмы 2016-2018 (Новинки мультфильмов) ·· Стань легендой! Бигфут Младший / The Son of Bigfoot (Жереми Дегрусон / Jeremy Degruson, Бен Стассен / Ben Stassen) [2017, Франция, Бельгия, мультфильм, комедия, BDRemux 1080p] iTunes Galfimbul 2150582069920.03 GB 0 0 1513217415

05:10

14-Дек-17

Мультфильмы 2016-2018 (Новинки мультфильмов) ·· Стань легендой! Бигфут Младший / The Son of Bigfoot (Жереми Дегрусон, Бен Стассен) [2017 г., мультфильм, комедия, WEB-DL 1080p] DUB | Чистый звук Galfimbul 37596861463.5 GB 0 0 1510825907

12:51

16-Ноя-17

Мультфильмы 2016-2018 (Новинки мультфильмов) ·· Стань легендой! Бигфут Младший / The Son of Bigfoot (Жереми Дегрусон, Бен Стассен) [2017 г., мультфильм, комедия, WEB-DL 720p] DUB | Чистый звук Galfimbul 31884551422.97 GB 0 0 1510825906

12:51

16-Ноя-17

Мультфильмы 2016-2018 (Новинки мультфильмов) ·· Стань легендой! Бигфут Младший / The Son of Bigfoot (Жереми Дегрусон, Бен Стассен) [2017 г., мультфильм, комедия, WEB-DLRip] DUB | Чистый звук Galfimbul 14677401601.37 GB 0 0 1510825904

12:51

16-Ноя-17

3D Мультфильмы ·· Стань легендой! Бигфут Младший в 3Д / The Son of Bigfoot 3D (Жереми Дегрусон, Бен Стассен / Jeremy Degruson, Ben Stassen) [2017, Мультфильм, Фэнтези, Комедия, Семейный, BDrip] Half OverUnder / Вертикальная анаморфная стереопара Galfimbul 78953338607.35 GB 0 0 1518789753

17:02

16-Фев-18

3D Мультфильмы ·· Стань легендой! Бигфут Младший в 3Д / The Son of Bigfoot 3D (Жереми Дегрусон / Jeremy Degruson, Бен Стассен / Ben Stassen) [2017, мультфильм, фэнтези, комедия, семейный, Blu-Ray Disc, 1080p] BD3D Galfimbul 3656443494434.05 GB 0 0 1517744168

14:36

4-Фев-18

Еще никто не оставлял запись к записи скачать торрент Стань легендой! Бигфут Младший The Son of Bigfoot . Будь первым!

!Обратная связь