Siêu Bão Địa CầuGeostorm 109 phút HD 720p-VietSub | Koro-sensei Quest! | Red Cockroaches (2003)

Скачать через торрент My Little Pony в кино My Little Pony: The Movie Фильм бесплатно в хорошем качестве torrent

Скачивайте на UnionPeer.org фильмы через торрент без регистрации. Новинки кино в хорошем качестве через торрент. На UnionPeer.org можно скачать через торрент фильмы 2014 и 2015 годов. Самые новые фильмы.

Скачать торрент My Little Pony в кино My Little Pony: The Movie бесплатно через .torrent фильм мультфильм сериал

Статистика раздачи
Размер:  1.46 GB   |    Зарегистрирован:  10 месяцев   |    .torrent скачан:  68 раз   |   
Раздают:  1  
   
загрузка...
 
Автор Сообщение

Galfimbul

avatar Galfimbul


«Встречай новое поколение героев»

Год выпуска фильма: 2017
Страна: США, Канада / Allspark Pictures, DHX Media, Hasbro Studios, Lionsgate
Жанр: мюзикл, фэнтези, комедия, приключения, семейный
Продолжительность: 01:39:23
Перевод: Профессиональный (дублированный) [LINE]
Режиссер: Джейсон Тиссен
В ролях: Тара Стронг, Эшли Болл, Андреа Либман, Табита Сен-Жермен, Кэти Уэслак, Эмили Блант, Кристин Ченоуэт, Лив Шрайбер, Майкл Пенья, Сиа
Описание: Шестерка любимых героев - Эпплджек, Сумеречная Искорка, Флаттершай, Пинки Пай, Рарити и Радуга Дэш - теперь на большом экране! Король Шторм хочет лишить пони магии и захватывает Кантерлот. Под угрозой будущее всей Эквестрии! Чтобы остановить злодея, пони покидают родные края и отправляются в путешествие, полное чудес и опасностей. Им предстоит покорить волшебные горы, погрузиться в подводные миры и даже оказаться на летучем пиратском корабле!..

Качество: HDRip (Сэмпл)
Формат видео: .avi
Видео: XVID, 720x304 (2,35:1), 24 fps, ~1449 kbps
Аудио:
Аудио 1 Rus: AC3, 48 kHz, 2 ch, 192 kbps (Dub line)
Аудио 2 Eng: AC3, 48 kHz, 6 ch, 448 kbps (Original)
Общее
Полное имя : D:VideoMultsmy.little.pony.the.movie.2017.xvid.dub.avi
Формат : AVI
Формат/Информация : Audio Video Interleave
Размер файла : 1,46 Гбайт
Продолжительность : 1 ч. 39 м.
Общий поток : 2097 Кбит/сек
Программа кодирования : VirtualDubMod 1.5.4.1 (build 2178/release)
Библиотека кодирования : VirtualDubMod build 2178/release

Видео
Идентификатор : 0
Формат : MPEG-4 Visual
Профиль формата : Advanced [email protected]
Настройки формата : Custom Matrix
Параметр BVOP формата : Нет
Параметр QPel формата : Нет
Параметр GMC формата : Без точки перехода
Параметр матрицы формата : Выборочная
Идентификатор кодека : XVID
Идентификатор кодека/Подсказка : XviD
Продолжительность : 1 ч. 39 м.
Битрейт : 1449 Кбит/сек
Ширина : 720 пикселей
Высота : 304 пикселя
Соотношение сторон : 2,35:1
Частота кадров : 24,000 кадра/сек
Цветовое пространство : YUV
Субдискретизация насыщенности : 4:2:0
Битовая глубина : 8 бит
Тип развёртки : Прогрессивная
Метод сжатия : С потерями
Бит/(Пиксели*Кадры) : 0.276
Размер потока : 1,01 Гбайт (69%)
Библиотека кодирования : XviD 1.2.1 (UTC 2008-12-04)

Аудио #1
Идентификатор : 1
Формат : AC-3
Формат/Информация : Audio Coding 3
Параметр Endianness формата : Big
Идентификатор кодека : 2000
Продолжительность : 1 ч. 39 м.
Вид битрейта : Постоянный
Битрейт : 192 Кбит/сек
Каналы : 2 канала
Расположение каналов : Front: L R
Частота : 48,0 КГц
Частота кадров : 31,250 кадров/сек (1536 SPF)
Битовая глубина : 16 бит
Метод сжатия : С потерями
Размер потока : 136 Мбайт (9%)
Выравнивание : Разделение по промежуткам
Продолжительность промежутка : 96 мс. (2,30 видеокадра)
Время предзагрузки промежутка : 96 мс.
ServiceKind/String : Complete Main

Аудио #2
Идентификатор : 2
Формат : AC-3
Формат/Информация : Audio Coding 3
Параметр Endianness формата : Big
Идентификатор кодека : 2000
Продолжительность : 1 ч. 39 м.
Вид битрейта : Постоянный
Битрейт : 448 Кбит/сек
Каналы : 6 каналов
Расположение каналов : Front: L C R, Side: L R, LFE
Частота : 48,0 КГц
Частота кадров : 31,250 кадров/сек (1536 SPF)
Битовая глубина : 16 бит
Метод сжатия : С потерями
Размер потока : 318 Мбайт (21%)
Выравнивание : Разделение по промежуткам
Продолжительность промежутка : 96 мс. (2,30 видеокадра)
Время предзагрузки промежутка : 96 мс.
ServiceKind/String : Complete Main
Источник http://arutor.org

Трекер:  [ 17-Ноя-2017 13:30 ]

  

Скачать .torrent

Размер .torrent файла 15 KB


Размер: 1.46 GB
Хэш (hash) релиза: 8962e6b27402fa5c41cb2878b9377b94411e68bb
Подписка на обновления:

Торренты, похожие на My Little Pony в кино My Little Pony: The Movie скачать торрент

Форум Название Автор Размер S L Добавлен
Мультфильмы до 2016 ·· Мой маленький пони: В Кино / My Little Pony: В Кино / My Little Pony: The Movie (Джейсон Тиссен / Jayson Thiessen) [2017, мюзикл, фэнтези, комедия, приключения, BDRip 1080p] 2xDUB+MVO+VO+Subs Galfimbul 88937700578.28 GB 0 0 1524522632

01:30

24-Апр-18

Мультфильмы до 2016 ·· My Little Pony в кино / My Little Pony: The Movie (Джейсон Тиссен / Jayson Thiessen) [2017, мультфильм, мюзикл, фэнтези, комедия, приключения, семейный, BDRemux 1080p] Dub (iTunes) + VO (Pony Stark) + Subs Galfimbul 2946663195627.44 GB 0 0 1517071000

19:36

27-Янв-18

Мультфильмы до 2016 ·· My Little Pony в кино / My Little Pony: The Movie (Джейсон Тиссен / Jayson Thiessen) [2017, мультфильм, мюзикл, фэнтези, комедия, приключения, семейный, WEB-DLRip] [Локализованный видеоряд] Dub Galfimbul 779790336744 MB 0 0 1514273791

10:36

26-Дек-17

Мультфильмы 2016-2018 (Новинки мультфильмов) ·· My Little Pony в кино / My Little Pony: The Movie (Джейсон Тиссен / Jayson Thiessen) [2017, мультфильм, мюзикл, фэнтези, комедия, приключения, семейный, WEB-DL 1080p] iTunes Galfimbul 36696433083.42 GB 0 0 1514262685

07:31

26-Дек-17

Мультфильмы 2016-2018 (Новинки мультфильмов) ·· My Little Pony в кино / My Little Pony: The Movie (Джейсон Тиссен / Jayson Thiessen) [2017, мультфильм, мюзикл, фэнтези, комедия, приключения, семейный, WEB-DLRip] iTunes Galfimbul 783112654747 MB 0 0 1514193628

12:20

25-Дек-17

Мультфильмы до 2016 ·· My Little Pony в кино / My Little Pony: The Movie (Джейсон Тиссен / Jayson Thiessen) [2017, Канада, США, мультфильм, мюзикл, фэнтези, комедия, приключения, WEB-DLRip-AVC] Dub Galfimbul 15639196771.46 GB 0 0 1514151402

00:36

25-Дек-17

Мультфильмы до 2016 ·· My Little Pony в кино / My Little Pony: The Movie (Джейсон Тиссен / Jayson Thiessen) [2017, мультфильм, мюзикл, фэнтези, комедия, приключения, семейный, WEB-DLRip] Dub Galfimbul 15637729281.46 GB 0 0 1514147802

23:36

24-Дек-17

Мультфильмы 2016-2018 (Новинки мультфильмов) ·· My Little Pony в кино / My Little Pony: The Movie (Джейсон Тиссен) [2017, мультфильм, мюзикл, фэнтези, комедия, приключения, семейный, WEB-DLRip] iTunes Galfimbul 15686144001.46 GB 0 0 1514146838

23:20

24-Дек-17

Развлекательные телепередачи и шоу ·· My Little Pony в кино (Упоротая озвучка) / My Little Pony: The Movie (Джейсон Тиссен / Jayson Thiessen) [2017, Мультфильм, мюзикл, фэнтези, комедия, приключения, семейный HDRip (720p)] MVO MASTER TIME (team) Galfimbul 20169403691.88 GB 0 0 1511695180

14:19

26-Ноя-17

Мультфильмы 2016-2018 (Новинки мультфильмов) ·· My Little Pony в кино / My Little Pony: The Movie (Джейсон Тиссен) [2017 г., мультфильм, мюзикл, фэнтези, комедия, приключения, семейный, WEB-DL 1080p] DUB | Чистый звук Galfimbul 38724439703.61 GB 0 0 1508320324

12:52

18-Окт-17

Мультфильмы 2016-2018 (Новинки мультфильмов) ·· My Little Pony в кино / My Little Pony: The Movie (Джейсон Тиссен) [2017 г., мультфильм, мюзикл, фэнтези, комедия, приключения, семейный, WEB-DL 720p] DUB | Чистый звук Galfimbul 33128357853.09 GB 0 0 1508320323

12:52

18-Окт-17

Мультфильмы 2016-2018 (Новинки мультфильмов) ·· My Little Pony в кино / My Little Pony: The Movie (Джейсон Тиссен) [2017 г., мультфильм, мюзикл, фэнтези, комедия, приключения, семейный, WEB-DLRip] DUB | Чистый звук Galfimbul 14675292161.37 GB 0 0 1508320321

12:52

18-Окт-17

Мультфильмы 2016-2018 (Новинки мультфильмов) ·· My Little Pony в кино / My Little Pony: The Movie (2017) HDRip | D Galfimbul 15694725121.46 GB 0 0 1508320286

12:51

18-Окт-17

Еще никто не оставлял запись к записи скачать торрент My Little Pony в кино My Little Pony: The Movie . Будь первым!

!Обратная связь