Shakira ft Maluma - Chantaje (Single + Thombs Remix) | DOWNLOAD | 7.1K 2 Metal Gear Survive – XboxOne Summary: Metal Gear Survive picks up from the ending of METAL GEAR SOLID V: GROUND ZEROES, to an alternate timeline caused by...

Скачать через торрент Спасти Пушкина Фильм бесплатно в хорошем качестве torrent

Скачивайте на UnionPeer.org фильмы через торрент без регистрации. Новинки кино в хорошем качестве через торрент. На UnionPeer.org можно скачать через торрент фильмы 2014 и 2015 годов. Самые новые фильмы.

Скачать торрент Спасти Пушкина бесплатно через .torrent фильм мультфильм сериал

Статистика раздачи
Размер:  1.32 GB   |    Зарегистрирован:  1 год 4 месяца   |    .torrent скачан:  124 раза   |   
Раздают:  1  
   
загрузка...
 
Автор Сообщение

Galfimbul

avatar Galfimbul


Спасти Пушкина / Спасти Пушкина

Год выхода: 2017
Жанр: Комедия
Режиссер: Филипп Коршунов, Павел Мирзоев
В ролях: Константин Крюков, Ирина Крутик, Алексей Лукин, Денис Сухомлинов, Арсений Гусев, Юрий Гальцев, Дарья Петриченко, Сергей Рост, Арина Постникова, Влад Красавин

Описание:
Всем известно, что А. С. Пушкин — наше всё. Поэтому ученики современного московского лицея хотят во что бы то ни стало спасти великого поэта от неминуемой смерти на дуэли. Школьники с помощью машины времени переносят Александра Сергеевича в XXI век, но и в наши дни его подстерегает немало опасностей.


Выпущено: Россия
Продолжительность: 01:23:14
Перевод: Не требуется (русский) | iTunes

Файл
Формат: MKV
Качество: WEB-DLRip-AVC
Видео: AVC, 1024x430 (2.40:1), 1889 kbps, 24.000 fps, 0,179 bpp
Аудио: 48 kHz, AC3, 5.1, 384 Kbps | RUS |
General
Unique ID : 250488931947315267802620540272263294282 (0xBC7269D9A92DE816875DDB92AC3BED4A)
Complete name : D:Spasti.Pushkina.2017.O.WEB-DL.Rip.AVC.ExKinoRay.mkv
Format : Matroska
Format version : Version 2
File size : 1.32 GiB
Duration : 1 h 23 min
Overall bit rate : 2 274 kb/s
Movie name : Spasti Pushkina (2017) from ExKinoRay
Encoded date : UTC 2017-06-05 23:08:36
Writing application : mkvmerge v5.8.0 ('No Sleep / Pillow') built on Sep 2 2012 15:37:04
Writing library : libebml v1.2.3 + libmatroska v1.3.0

Video
ID : 1
Format : AVC
Format/Info : Advanced Video Codec
Format profile : [email protected]
Format settings, CABAC : Yes
Format settings, ReFrames : 11 frames
Codec ID : V_MPEG4/ISO/AVC
Duration : 1 h 23 min
Bit rate : 1 889 kb/s
Width : 1 024 pixels
Height : 430 pixels
Display aspect ratio : 2.40:1
Frame rate mode : Constant
Frame rate : 24.000 FPS
Color space : YUV
Chroma subsampling : 4:2:0
Bit depth : 8 bits
Scan type : Progressive
Bits/(Pixel*Frame) : 0.179
Stream size : 1.07 GiB (81%)
Title : Enigma
Writing library : x264 core 144 r2525 40bb568
Encoding settings : cabac=1 / ref=11 / deblock=1:-3:-3 / analyse=0x3:0x113 / me=umh / subme=10 / psy=1 / psy_rd=1.00:0.05 / mixed_ref=1 / me_range=32 / chroma_me=1 / trellis=2 / 8x8dct=1 / cqm=0 / deadzone=21,11 / fast_pskip=1 / chroma_qp_offset=-3 / threads=12 / lookahead_threads=2 / sliced_threads=0 / nr=0 / decimate=0 / interlaced=0 / bluray_compat=0 / constrained_intra=0 / bframes=9 / b_pyramid=2 / b_adapt=2 / b_bias=0 / direct=3 / weightb=1 / open_gop=0 / weightp=2 / keyint=240 / keyint_min=24 / scenecut=40 / intra_refresh=0 / rc_lookahead=40 / rc=2pass / mbtree=0 / bitrate=1889 / ratetol=1.0 / qcomp=0.60 / qpmin=0 / qpmax=51 / qpstep=4 / cplxblur=20.0 / qblur=0.5 / vbv_maxrate=50000 / vbv_bufsize=62500 / nal_hrd=none / filler=0 / ip_ratio=1.40 / pb_ratio=1.30 / aq=1:1.00
Default : Yes
Forced : No
Color range : Limited
Color primaries : BT.709
Transfer characteristics : BT.709
Matrix coefficients : BT.709

Audio
ID : 2
Format : AC-3
Format/Info : Audio Coding 3
Mode extension : CM (complete main)
Format settings, Endianness : Big
Codec ID : A_AC3
Duration : 1 h 23 min
Bit rate mode : Constant
Bit rate : 384 kb/s
Channel(s) : 6 channels
Channel positions : Front: L C R, Side: L R, LFE
Sampling rate : 48.0 kHz
Frame rate : 31.250 FPS (1536 spf)
Compression mode : Lossy
Stream size : 229 MiB (17%)
Language : Russian
Default : Yes
Forced : No

Menu
00:00:00.000 : en:1
00:06:54.000 : en:2
00:12:44.875 : en:3
00:20:04.000 : en:4
00:25:38.041 : en:5
00:30:59.666 : en:6
00:35:39.999 : en:7
00:41:56.499 : en:8
00:48:23.124 : en:9
00:53:53.124 : en:10
01:00:25.624 : en:11
01:05:37.790 : en:12
01:12:35.415 : en:13


Трекер:  [ 06-Июн-2017 20:42 ]

  

Скачать .torrent

Размер .torrent файла 13 KB


Размер: 1.32 GB
Хэш (hash) релиза: 6bcbdc08105335accf5eae24bf02d94fa8a047cc
Подписка на обновления:

Торренты, похожие на Спасти Пушкина скачать торрент

Форум Название Автор Размер S L Добавлен
Российские фильмы до 2016 ·· Спасти Пушкина (Филипп Коршунов, Павел Мирзоев) [2017, Комедия, WEB-DLRip] Galfimbul 15626158081.46 GB 0 0 1497063072

05:51

10-Июн-17

Российские фильмы до 2016 ·· Спасти Пушкина (Филипп Коршунов, Павел Мирзоев) [2017, Россия, комедия, WEB-DL 1080p] + Original Rus Galfimbul 30758052692.86 GB 0 0 1496842091

16:28

7-Июн-17

Российские фильмы 2016-2018 (Новинки русского кино) ·· Спасти Пушкина (Филипп Коршунов, Павел Мирзоев) [2017, комедия, WEB-DL 1080p][iTunes] Galfimbul 30758433892.86 GB 0 0 1496745209

13:33

6-Июн-17

Российские фильмы 2016-2018 (Новинки русского кино) ·· Спасти Пушкина (Филипп Коршунов, Павел Мирзоев) [2017 г., комедия, WEB-DLRip] | iTunes Galfimbul 14679306241.37 GB 0 0 1496745097

13:31

6-Июн-17

Российские фильмы 2016-2018 (Новинки русского кино) ·· Спасти Пушкина (Филипп Коршунов, Павел Мирзоев) [2017 г., комедия, WEB-DL 720p] | iTunes Galfimbul 27387182832.55 GB 0 0 1496745086

13:31

6-Июн-17

Еще никто не оставлял запись к записи скачать торрент Спасти Пушкина . Будь первым!

!Обратная связь