HP Deskjet Ink Advantage 4515 Driver | Young Sheldon | Justice League

Скачать через торрент Дуэлянт Фильм бесплатно в хорошем качестве torrent

Скачивайте на UnionPeer.org фильмы через торрент без регистрации. Новинки кино в хорошем качестве через торрент. На UnionPeer.org можно скачать через торрент фильмы 2014 и 2015 годов. Самые новые фильмы.

Скачать торрент Дуэлянт бесплатно через .torrent фильм мультфильм сериал

Статистика раздачи
Размер:  3.23 GB   |    Зарегистрирован:  1 год 11 месяцев   |    .torrent скачан:  1803 раза   |   
Раздают:  1  
   
загрузка...
 
Автор Сообщение

Galfimbul

avatar Galfimbul


Дуэлянт



[b]Год выхода:
2016
Страна: Россия
Жанр: Драма
Производство: Нон-стоп Продакшн
Перевод: Не требуется
Субтитры: Нет
Продолжительность: 01:44:43

Режиссер: Алексей Мизгирёв

В ролях: Пётр Фёдоров, Владимир Машков, Юлия Хлынина, Франциска Петри, Мартин Вуттке, Сергей Гармаш, Павел Табаков, Юрий Колокольников, Александр Яценко, Пьер Бурель

Описание:
Фильм включает три новеллы о негативных явлениях провинциальной жизни молодой страны Советов: тупости, пьянстве, стяжательстве, бездуховности — всем том, что и сейчас существует благополучно и повсеместно.



Релиз: Цифровая лицензия iTunes. Релиз без рекламы.
General
Unique ID : 239962421875612790872645372983204665451 (0xB48714D56FE96FBB8B467DDF5DEC586B)
Complete name : Dy3lHyat.2016.O.WEB-DL.720p.mkv
Format : Matroska
Format version : Version 4 / Version 2
File size : 3.23 GiB
Duration : 1 h 44 min
Overall bit rate : 4 411 kb/s
Encoded date : UTC 2016-10-30 18:45:21
Writing application : mkvmerge v8.3.0 ('Over the Horizon') 64bit
Writing library : libebml v1.3.1 + libmatroska v1.4.2

Video
ID : 1
Format : AVC
Format/Info : Advanced Video Codec
Format profile : [email protected]
Format settings, CABAC : No
Format settings, ReFrames : 2 frames
Codec ID : V_MPEG4/ISO/AVC
Duration : 1 h 44 min
Bit rate : 3 940 kb/s
Width : 960 pixels
Height : 540 pixels
Display aspect ratio : 2.40:1
Frame rate mode : Constant
Frame rate : 25.000 FPS
Color space : YUV
Chroma subsampling : 4:2:0
Bit depth : 8 bits
Scan type : Progressive
Bits/(Pixel*Frame) : 0.304
Stream size : 2.88 GiB (89%)
Language : English
Default : Yes
Forced : No
Color range : Limited
Color primaries : BT.709
Transfer characteristics : BT.709
Matrix coefficients : BT.709

Audio
ID : 2
Format : AC-3
Format/Info : Audio Coding 3
Mode extension : CM (complete main)
Format settings, Endianness : Big
Codec ID : A_AC3
Duration : 1 h 44 min
Bit rate mode : Constant
Bit rate : 384 kb/s
Channel(s) : 2 channels
Channel positions : Front: L R
Sampling rate : 48.0 kHz
Frame rate : 31.250 FPS (1536 spf)
Compression mode : Lossy
Stream size : 288 MiB (9%)
Default : Yes
Forced : No

Menu
00:00:00.000 : en:1
00:06:46.560 : en:2
00:14:28.240 : en:3
00:21:11.040 : en:4
00:26:11.000 : en:5
00:30:12.000 : en:6
00:36:18.960 : en:7
00:43:45.240 : en:8
00:49:11.720 : en:9
00:56:21.320 : en:10
01:02:33.280 : en:11
01:08:04.240 : en:12
01:13:35.240 : en:13
01:20:05.440 : en:14
01:27:22.320 : en:15
01:34:01.040 : en:16
Технические данные файла:
Качество: WEB-DL 720p
Формат: MKV
Видео кодек: MPEG-4 AVC
Аудио кодек: AC3
Видео: 960х[email protected], 25.000 fps, 4000 kbps avg, 0.304 bit/pixel
Аудио: 48 kHz, 2 ch, 384 kbps avg

Трекер:  [ 30-Окт-2016 23:30 ]

  

Скачать .torrent

Размер .torrent файла 32 KB


Размер: 3.23 GB
Хэш (hash) релиза: fb9a456ae5af3f6f46e16fb381ac8329e90ca8c2
Подписка на обновления:

Торренты, похожие на Дуэлянт скачать торрент

Форум Название Автор Размер S L Добавлен
Азиатские фильмы ·· Дуэлянт / Duelist / Hyeongsa (Мен Се Ли / Myung-se Lee) [2005, Экшн; Мистика, DVD5] Galfimbul 45015402364.19 GB 0 0 1499020586

21:36

2-Июл-17

Российские фильмы до 2016 ·· Дуэлянт (Алексей Мизгирёв) [2016, Россия, драма, BDRip 1080p] + Original Rus Galfimbul 1181278734711 GB 0 0 1484571319

15:55

16-Янв-17

Российские фильмы до 2016 ·· Дуэлянт (Алексей Мизгирёв) [2016, Россия, драма, BDRip 720p] + Original Rus Galfimbul 62469254075.82 GB 0 0 1484571314

15:55

16-Янв-17

Российские фильмы до 2016 ·· Дуэлянт (Алексей Мизгирёв) [2016, Драма, BDRip] Galfimbul 22019256322.05 GB 0 0 1484463702

10:01

15-Янв-17

Российские фильмы до 2016 ·· Дуэлянт (Алексей Мизгирёв) [2016, драма, BDRip-AVC] Galfimbul 22206275652.07 GB 0 0 1484364976

06:36

14-Янв-17

Российские фильмы до 2016 ·· Дуэлянт (Алексей Мизгирёв) [2016, драма, BDRip-AVC] Galfimbul 15516249161.45 GB 0 0 1484335992

22:33

13-Янв-17

Российские фильмы до 2016 ·· Дуэлянт (Алексей Мизгирёв) [2016, Драма, WEB-DLRip, AVC] Galfimbul 22053645802.05 GB 0 0 1482741163

11:32

26-Дек-16

Российские фильмы до 2016 ·· Дуэлянт (Алексей Мизгирёв) [2016, Драма, WEB-DLRip] Galfimbul 15682829841.46 GB 0 0 1482267020

23:50

20-Дек-16

Российские фильмы до 2016 ·· Дуэлянт (Алексей Мизгирёв) [2016, Драма, WEB-DLRip] Galfimbul 15681310721.46 GB 0 0 1482262522

22:35

20-Дек-16

Российские сериалы ·· Дуэлянт (Алексей Мизгирёв) [2016, Россия, драма, WEB-DL 1080p] Galfimbul 38904903193.62 GB 0 0 1482261286

22:14

20-Дек-16

Российские фильмы до 2016 ·· Дуэлянт (Алексей Мизгирёв) [2016, Драма, WEB-DLRip] Galfimbul 22571724802.1 GB 0 0 1481545260

15:21

12-Дек-16

Российские фильмы до 2016 ·· Дуэлянт (Алексей Мизгирёв) [2016, драма, WEB-DLRip-AVC] Galfimbul 14866732021.38 GB 0 0 1477988093

11:14

1-Ноя-16

Российские фильмы до 2016 ·· Дуэлянт (Алексей Мизгирёв) [2016, Драма, WEB-DLRip-AVC] Galfimbul 15653141101.46 GB 0 0 1477978692

08:38

1-Ноя-16

Российские фильмы до 2016 ·· Дуэлянт (Алексей Мизгирёв) [2016, Драма, WEB-DLRip] Galfimbul 781096960745 MB 0 0 1477865110

01:05

31-Окт-16

Российские фильмы 2016-2018 (Новинки русского кино) ·· Дуэлянт (Алексей Мизгирёв) [2016, драма, WEB-DLRip] iTunes Galfimbul 15618478081.45 GB 0 0 1477860019

23:40

30-Окт-16

Российские фильмы 2016-2018 (Новинки русского кино) ·· Дуэлянт (Алексей Мизгирёв) [2016, драма, WEB-DL 1080p] iTunes Galfimbul 38904489423.62 GB 0 0 1477860009

23:40

30-Окт-16

Российские фильмы 2016-2018 (Новинки русского кино) ·· Дуэлянт (Алексей Мизгирёв) [2016, драма, CAMRip] Galfimbul 14678528001.37 GB 0 0 1475262760

22:12

30-Сен-16

Зарубежные фильмы до 2016 ·· Дуэлянты / The Duellists (Ридли Скотт / Ridley Scott) [1977, Великобритания, Драма, BDRip] MVO + Original (Eng) + Sub (Rus, Eng) L 19026437321.77 GB 0 0 1362580320

17:32

6-Мар-13

Еще никто не оставлял запись к записи скачать торрент Дуэлянт . Будь первым!

!Обратная связь