Dissolution | Gmail Notifier Pro 4.0.1 | Falling Skies (2011 )

Скачать через торрент Полный расколбас Sausage Party Фильм бесплатно в хорошем качестве torrent

Скачивайте на UnionPeer.org фильмы через торрент без регистрации. Новинки кино в хорошем качестве через торрент. На UnionPeer.org можно скачать через торрент фильмы 2014 и 2015 годов. Самые новые фильмы.

Скачать торрент Полный расколбас Sausage Party бесплатно через .torrent фильм мультфильм сериал

Статистика раздачи
Размер:  5.48 GB   |    Зарегистрирован:  1 год 10 месяцев   |    .torrent скачан:  427 раз   |   
Раздают:  1  
   
загрузка...
 
Автор Сообщение

Galfimbul

avatar Galfimbul


Полный расколбас /Sausage Party

Год выхода: 2016
Жанр: Мультфильм для взрослых, фэнтези, комедия, приключения, полнометражный
Режиссер: Грег Тирнан, Конрад Вернон
В ролях: Алистэр Эбелл, Айрис Апатоу, Стефани Бирд, Майкл Сера, Йен Джеймс Корлетт, Майкл Дэйнджерфилд, Брайан Добсон, Майкл Добсон, Джеймс Франко, Билл Хейдер

О фильме:
Не секрет, что вся вселенная - это гигантский супермаркет. Ничего не подозревающие продукты попадают в неизвестный им мир. Они думают что здесь можно отдохнуть и поразвлечься. Но в итоге оказывается что их всех заманили сюда чтобы съесть... Первая анимационная комедия для взрослых о невероятных приключениях еды из супермаркета. Съедобным друзьям предстоит получить ответ на главный вопрос: есть ли жизнь за стенами супермаркета и что же происходит с продуктами после того, как они попадают к людям домой?



Страна: США
Студия: Annapurna Pictures, Columbia Pictures, Nitrogen Studios Canada, Point Grey Pictures
Продолжительность: 01:28:45
Перевод: Дублированный | iTunes

Файл
Кодек: MPEG-4
Качество: BDRip 720p
Видео: 1280x688, 6940 Кbit/s, 23.976 fps
Звук:
Аудио #01: 48 kHz, AC3, 5.1, 384 Kbps | Дублированный | iTunes |
Аудио #02: 48 kHz, DTS, 5.1, 1510 kbps | Оригинал |
Субтитры: Английские
General
Unique ID : 194349529455123875085956385843294473860 (0x92365B9BC3920FD9BFAF0B0EEDDB8E84)
Complete name : H:VideoSausage.Party.2016.BDRip.720p.ExKinoRay.mkv
Format : Matroska
Format version : Version 4 / Version 2
File size : 5.48 GiB
Duration : 1 h 28 min
Overall bit rate : 8 832 kb/s
Movie name : ***селезень***
Encoded date : UTC 2016-10-25 02:17:09
Writing application : mkvmerge v8.3.0 ('Over the Horizon') 64bit
Writing library : libebml v1.3.1 + libmatroska v1.4.2

Video
ID : 1
Format : AVC
Format/Info : Advanced Video Codec
Format profile : [email protected]
Format settings, CABAC : Yes
Format settings, ReFrames : 8 frames
Codec ID : V_MPEG4/ISO/AVC
Duration : 1 h 28 min
Bit rate : 6 940 kb/s
Width : 1 280 pixels
Height : 688 pixels
Display aspect ratio : 1.85:1
Frame rate mode : Constant
Frame rate : 23.976 (24000/1001) FPS
Color space : YUV
Chroma subsampling : 4:2:0
Bit depth : 8 bits
Scan type : Progressive
Bits/(Pixel*Frame) : 0.329
Stream size : 4.30 GiB (79%)
Title : ***селезень***
Writing library : x264 core 142 r2431+42 c69a006 tMod [[email protected] X86_64]
Encoding settings : cabac=1 / ref=8 / deblock=1:1:1 / analyse=0x3:0x133 / me=umh / subme=11 / psy=1 / fade_compensate=0.00 / psy_rd=1.05:1.05 / mixed_ref=1 / me_range=36 / chroma_me=1 / trellis=2 / 8x8dct=1 / cqm=0 / deadzone=21,11 / fast_pskip=0 / chroma_qp_offset=-4 / threads=16 / lookahead_threads=2 / sliced_threads=0 / nr=0 / decimate=0 / interlaced=0 / bluray_compat=0 / constrained_intra=0 / fgo=0 / bframes=8 / b_pyramid=2 / b_adapt=2 / b_bias=0 / direct=3 / weightb=1 / open_gop=0 / weightp=2 / keyint=240 / keyint_min=23 / scenecut=40 / intra_refresh=0 / rc_lookahead=150 / rc=2pass / mbtree=0 / bitrate=6940 / ratetol=1.0 / qcomp=0.80 / qpmin=0:0:0 / qpmax=69:69:69 / qpstep=4 / cplxblur=20.0 / qblur=0.5 / vbv_maxrate=300000 / vbv_bufsize=300000 / nal_hrd=none / filler=0 / ip_ratio=1.30 / pb_ratio=1.40 / aq=2:0.68 / aq-sensitivity=10.00 / aq-factor=1.00:1.00:1.00 / aq2=0 / aq3=0
Language : English
Default : Yes
Forced : No
Color range : Limited
Color primaries : BT.709
Transfer characteristics : BT.709
Matrix coefficients : BT.709

Audio #1
ID : 2
Format : AC-3
Format/Info : Audio Coding 3
Mode extension : CM (complete main)
Format settings, Endianness : Big
Codec ID : A_AC3
Duration : 1 h 28 min
Bit rate mode : Constant
Bit rate : 384 kb/s
Channel(s) : 6 channels
Channel positions : Front: L C R, Side: L R, LFE
Sampling rate : 48.0 kHz
Frame rate : 31.250 FPS (1536 spf)
Compression mode : Lossy
Delay relative to video : 960 ms
Stream size : 244 MiB (4%)
Title : iTunes
Language : Russian
Default : Yes
Forced : No

Audio #2
ID : 3
Format : DTS
Format/Info : Digital Theater Systems
Mode : 16
Format settings, Endianness : Big
Codec ID : A_DTS
Duration : 1 h 28 min
Bit rate mode : Constant
Bit rate : 1 509 kb/s
Channel(s) : 6 channels
Channel positions : Front: L C R, Side: L R, LFE
Sampling rate : 48.0 kHz
Frame rate : 93.750 FPS (512 spf)
Bit depth : 24 bits
Compression mode : Lossy
Stream size : 958 MiB (17%)
Title : Original
Language : English
Default : No
Forced : No

Text #1
ID : 4
Format : UTF-8
Codec ID : S_TEXT/UTF8
Codec ID/Info : UTF-8 Plain Text
Duration : 1 h 26 min
Bit rate : 85 b/s
Count of elements : 1457
Stream size : 53.8 KiB (0%)
Title : Full
Language : English
Default : No
Forced : No

Text #2
ID : 5
Format : UTF-8
Codec ID : S_TEXT/UTF8
Codec ID/Info : UTF-8 Plain Text
Duration : 1 h 27 min
Bit rate : 91 b/s
Count of elements : 1703
Stream size : 58.0 KiB (0%)
Title : SDH
Language : English
Default : No
Forced : No

Menu
00:00:00.000 : en:00:00:00.000
00:04:24.264 : en:00:04:24.264
00:10:19.118 : en:00:10:19.118
00:15:27.844 : en:00:15:27.844
00:19:32.171 : en:00:19:32.171
00:24:53.701 : en:00:24:53.701
00:29:32.938 : en:00:29:32.938
00:35:44.142 : en:00:35:44.142
00:41:55.263 : en:00:41:55.263
00:48:18.521 : en:00:48:18.521
00:54:45.908 : en:00:54:45.908
00:59:54.508 : en:00:59:54.508
01:03:47.073 : en:01:03:47.073
01:08:01.286 : en:01:08:01.286
01:11:55.811 : en:01:11:55.811
01:16:03.809 : en:01:16:03.809


Релиз от: Автор релиза:

Трекер:  [ 25-Окт-2016 05:30 ]

  

Скачать .torrent

Размер .torrent файла 28 KB


Размер: 5.48 GB
Хэш (hash) релиза: ed108b00703548917053cadd951fd5336617f51a
Подписка на обновления:

Торренты, похожие на Полный расколбас Sausage Party скачать торрент

Форум Название Автор Размер S L Добавлен
Мультфильмы до 2016 ·· Сосисочная вечеринка / Полный расколбас / Sausage Party (Грег Тирнан / Greg Tiernan, Конрад Вернон / Conrad Verno) [2016, США, мультфильм, фэнтези, комедия, приключения, BDRip] AVO (Пучков) Galfimbul 15716597761.46 GB 0 0 1515956816

22:06

14-Янв-18

Мультфильмы до 2016 ·· Полный расколбас / Sausage Party (Грег Тирнан и Конрад Вернон / Greg Tiernan & Conrad Vernon) [2016, США, мультфильм, фэнтези, комедия, приключения, BDRip 1080p] Dub (Blu-ray CEE) + VO (Чадов) + Original (Eng) + Sub (Rus, Eng) Galfimbul 93423444088.7 GB 0 0 1479018266

09:24

13-Ноя-16

Мультфильмы до 2016 ·· Полный расколбас / Sausage Party (Грег Тирнан и Конрад Вернон / Greg Tiernan & Conrad Vernon) [2016, США, мультфильм, фэнтези, комедия, приключения, Blu-ray disc 080p] [CEE] Dub + Sub Rus, Eng + Original Eng Galfimbul 2865083467026.68 GB 0 0 1478339748

12:55

5-Ноя-16

Мультфильмы 2016-2018 (Новинки мультфильмов) ·· Полный расколбас / Sausage Party (Грег Тирнан и Конрад Вернон / Greg Tiernan & Conrad Vernon) [2016, США, мультфильм, фэнтези, комедия, приключения, BDRip] Лицензия Galfimbul 15659825181.46 GB 0 0 1478263442

15:44

4-Ноя-16

Мультфильмы 2016-2018 (Новинки мультфильмов) ·· Полный расколбас / Sausage Party (Грег Тирнан и Конрад Вернон / Greg Tiernan & Conrad Vernon) [2016, США, мультфильм, фэнтези, комедия, приключения, BDRip] Лицензия Galfimbul 781437660745 MB 0 0 1478263435

15:43

4-Ноя-16

Мультфильмы 2016-2018 (Новинки мультфильмов) ·· Полный расколбас / Sausage Party (Грег Тирнан и Конрад Вернон / Greg Tiernan & Conrad Vernon) [2016, США, мультфильм, фэнтези, комедия, приключения, BDRip 1080p] Лицензия Galfimbul 78720909957.33 GB 0 0 1478263424

15:43

4-Ноя-16

Мультфильмы до 2016 ·· Полный расколбас / Sausage Party (Грег Тирнан и Конрад Вернон / Greg Tiernan & Conrad Vernon) [2016, США, мультфильм, фэнтези, комедия, приключения, BDRip 1080p] Dub (iTunes) + Original (Eng) + Sub (Rus, Eng) Galfimbul 1077903511710.04 GB 0 0 1477999368

14:22

1-Ноя-16

Мультфильмы до 2016 ·· Полный расколбас / Sausage Party (Грег Тирнан / Greg Tiernan, Конрад Вернон / Conrad Vernon) [2016, США, мультфильм, фэнтези, комедия, приключения, BDRemux 1080p] DUB (iTunes) + Original (Eng) + SUB (eng) Galfimbul 1840169731417.14 GB 0 0 1477398573

15:29

25-Окт-16

Мультфильмы до 2016 ·· Полный расколбас / Sausage Party (Грег Тирнан / Greg Tiernan, Конрад Вернон / Conrad Vernon) [2016, США, мультфильм, фэнтези, комедия, BDRip-AVC] Dub Galfimbul 15734841111.47 GB 0 0 1477380701

10:31

25-Окт-16

Мультфильмы 2016-2018 (Новинки мультфильмов) ·· Полный расколбас / Sausage Party (Грег Тирнан / Greg Tiernan, Конрад Вернон / Conrad Vernon) [2016, США, мультфильм, фэнтези, комедия, приключения, BDRip 1080p] iTunes Galfimbul 106124652109.88 GB 0 0 1477363280

05:41

25-Окт-16

Мультфильмы 2016-2018 (Новинки мультфильмов) ·· Полный расколбас / Sausage Party (Грег Тирнан / Greg Tiernan, Конрад Вернон / Conrad Vernon) [2016, США, мультфильм, фэнтези, комедия, приключения, BDRemux 1080p] iTunes Galfimbul 1840165101617.14 GB 0 0 1477363266

05:41

25-Окт-16

Мультфильмы 2016-2018 (Новинки мультфильмов) ·· Полный расколбас / Sausage Party (Грег Тирнан / Greg Tiernan, Конрад Вернон / Conrad Vernon) [2016, США, мультфильм, фэнтези, комедия, приключения, BDRip 720p] iTunes Galfimbul 42500419573.96 GB 0 0 1477347123

01:12

25-Окт-16

Мультфильмы 2016-2018 (Новинки мультфильмов) ·· Полный расколбас / Sausage Party (Грег Тирнан / Greg Tiernan, Конрад Вернон / Conrad Vernon) [2016, США, мультфильм, фэнтези, комедия, приключения, HDRip] iTunes Galfimbul 735666176702 MB 0 0 1477345230

00:40

25-Окт-16

Мультфильмы 2016-2018 (Новинки мультфильмов) ·· Полный расколбас / Sausage Party (Грег Тирнан / Greg Tiernan, Конрад Вернон / Conrad Vernon) [2016, США, мультфильм, фэнтези, комедия, приключения, BDRip] iTunes Galfimbul 15199457281.42 GB 0 0 1477345214

00:40

25-Окт-16

Мультфильмы 2016-2018 (Новинки мультфильмов) ·· Полный расколбас / Sausage Party (Грег Тирнан / Greg Tiernan, Конрад Вернон / Conrad Vernon) [2016, США, мультфильм, фэнтези, комедия, приключения, HDRip] iTunes Galfimbul 14677749761.37 GB 0 0 1477340553

23:22

24-Окт-16

Мультфильмы до 2016 ·· Полный расколбас / Sausage Party (Грег Тирнан / Greg Tiernan, Конрад Вернон / Conrad Vernon) [2016, США, мультфильм, фэнтези, комедия, приключения, BDRip 720p] Dub (iTunes) + Sub (Eng) + Original (Eng) Galfimbul 50117011204.67 GB 0 0 1477340367

23:19

24-Окт-16

Мультфильмы 2016-2018 (Новинки мультфильмов) ·· Полный расколбас / Sausage Party (Грег Тирнан, Конрад Вернон) [2016 г., мультфильм, фэнтези, комедия, приключения, HDRip] Galfimbul 15573790721.45 GB 0 0 1477238390

18:59

23-Окт-16

Мультфильмы 2016-2018 (Новинки мультфильмов) ·· Полный расколбас / Sausage Party (Грег Тирнан, Конрад Вернон) [2016 г., мультфильм, фэнтези, комедия, приключения, HDRip] Galfimbul 781989888746 MB 0 0 1477238320

18:58

23-Окт-16

Мультфильмы 2016-2018 (Новинки мультфильмов) ·· Полный расколбас / Sausage Party (Грег Тирнан, Конрад Вернон) [2016 г., мультфильм, фэнтези, комедия, приключения, BDRip 720p] Galfimbul 31311011312.92 GB 0 0 1477038701

11:31

21-Окт-16

Еще никто не оставлял запись к записи скачать торрент Полный расколбас Sausage Party . Будь первым!

!Обратная связь