Battle for Skyark (2015) 720p BRRip 800MB | Mango Capsa Susun | Bering Sea Gold S06E11 720p HDTV x264-BAJSKORV[ettv]

Скачать через торрент Дуэлянт Фильм бесплатно в хорошем качестве torrent

Скачивайте на UnionPeer.org фильмы через торрент без регистрации. Новинки кино в хорошем качестве через торрент. На UnionPeer.org можно скачать через торрент фильмы 2014 и 2015 годов. Самые новые фильмы.

Скачать торрент Дуэлянт бесплатно через .torrent фильм мультфильм сериал

Статистика раздачи
Размер:  1.37 GB   |    Зарегистрирован:  2 года   |    .torrent скачан:  1809 раз   |   
Раздают:  1  
   
загрузка...
 
Автор Сообщение

Galfimbul

avatar Galfimbul


Дуэлянт

Страна: Россия
Производство: Нон-стоп Продакшн
Год выпуска: 2016
Жанр: драма
Продолжительность: 01:41:57

Режиссер: Алексей Мизгирёв
Автор сценария: Алексей Мизгирёв

В ролях: Пётр Фёдоров, Владимир Машков, Юлия Хлынина, Франциска Петри, Мартин Вуттке, Сергей Гармаш, Павел Табаков, Пьер Бурель

Описание: В центре сюжета профессиональный дуэлянт, который зарабатывает на жизнь, участвуя в поединках за других людей...



Перевод: не требуется (оригинал)
Субтитры: нет
Качество: CAMRip
Формат: АVI
Видео кодек: XviD
Аудио кодек: АС3
Видео: 720x320 (2.25:1), 29.970 fps, XviD ~1 643 kbps avg
Аудио: 48.0 kHz, AC3 Dolby Digital, 2/0 (L,R) ch, ~192 kbps

Дата премьеры (мир): 9 сентября 2016
Дата премьеры (РФ): 29 сентября 2016, «WDSSPR»

</a>
General
Complete name : DueLiyant.21O6.O.CAMRip.14OOMB_KOSHARA.avi
Format : AVI
Format/Info : Audio Video Interleave
File size : 1.37 GiB
Duration : 1h 41mn
Overall bit rate : 1 920 Kbps
Writing application : VirtualDubMod 1.5.10.2 (build 2540/release)
Writing library : VirtualDubMod build 2540/release

Video
ID : 0
Format : MPEG-4 Visual
Format profile : Advanced [email protected]
Format settings, BVOP : 2
Format settings, QPel : No
Format settings, GMC : No warppoints
Format settings, Matrix : Custom
Codec ID : XVID
Codec ID/Hint : XviD
Duration : 1h 41mn
Bit rate : 1 643 Kbps
Width : 720 pixels
Height : 320 pixels
Display aspect ratio : 2.25:1
Frame rate : 29.970 fps
Color space : YUV
Chroma subsampling : 4:2:0
Bit depth : 8 bits
Scan type : Progressive
Compression mode : Lossy
Bits/(Pixel*Frame) : 0.238
Stream size : 1.17 GiB (86%)
Writing library : XviD 1.2.1 (UTC 2008-12-04)

Audio
ID : 1
Format : AC-3
Format/Info : Audio Coding 3
Mode extension : CM (complete main)
Format settings, Endianness : Big
Codec ID : 2000
Duration : 1h 41mn
Bit rate mode : Constant
Bit rate : 192 Kbps
Channel(s) : 2 channels
Channel positions : Front: L R
Sampling rate : 48.0 KHz
Bit depth : 16 bits
Compression mode : Lossy
Stream size : 140 MiB (10%)
Alignment : Split accross interleaves


Трекер:  [ 30-Сен-2016 22:00 ]

  

Скачать .torrent

Размер .torrent файла 14 KB


Размер: 1.37 GB
Хэш (hash) релиза: 72dd258a0092e662016b27129b83456bef0abcbc
Подписка на обновления:

Торренты, похожие на Дуэлянт скачать торрент

Форум Название Автор Размер S L Добавлен
Азиатские фильмы ·· Дуэлянт / Duelist / Hyeongsa (Мен Се Ли / Myung-se Lee) [2005, Экшн; Мистика, DVD5] Galfimbul 45015402364.19 GB 0 0 1499020586

21:36

2-Июл-17

Российские фильмы до 2016 ·· Дуэлянт (Алексей Мизгирёв) [2016, Россия, драма, BDRip 1080p] + Original Rus Galfimbul 1181278734711 GB 0 0 1484571319

15:55

16-Янв-17

Российские фильмы до 2016 ·· Дуэлянт (Алексей Мизгирёв) [2016, Россия, драма, BDRip 720p] + Original Rus Galfimbul 62469254075.82 GB 0 0 1484571314

15:55

16-Янв-17

Российские фильмы до 2016 ·· Дуэлянт (Алексей Мизгирёв) [2016, Драма, BDRip] Galfimbul 22019256322.05 GB 0 0 1484463702

10:01

15-Янв-17

Российские фильмы до 2016 ·· Дуэлянт (Алексей Мизгирёв) [2016, драма, BDRip-AVC] Galfimbul 22206275652.07 GB 0 0 1484364976

06:36

14-Янв-17

Российские фильмы до 2016 ·· Дуэлянт (Алексей Мизгирёв) [2016, драма, BDRip-AVC] Galfimbul 15516249161.45 GB 0 0 1484335992

22:33

13-Янв-17

Российские фильмы до 2016 ·· Дуэлянт (Алексей Мизгирёв) [2016, Драма, WEB-DLRip, AVC] Galfimbul 22053645802.05 GB 0 0 1482741163

11:32

26-Дек-16

Российские фильмы до 2016 ·· Дуэлянт (Алексей Мизгирёв) [2016, Драма, WEB-DLRip] Galfimbul 15682829841.46 GB 0 0 1482267020

23:50

20-Дек-16

Российские фильмы до 2016 ·· Дуэлянт (Алексей Мизгирёв) [2016, Драма, WEB-DLRip] Galfimbul 15681310721.46 GB 0 0 1482262522

22:35

20-Дек-16

Российские сериалы ·· Дуэлянт (Алексей Мизгирёв) [2016, Россия, драма, WEB-DL 1080p] Galfimbul 38904903193.62 GB 0 0 1482261286

22:14

20-Дек-16

Российские фильмы до 2016 ·· Дуэлянт (Алексей Мизгирёв) [2016, Драма, WEB-DLRip] Galfimbul 22571724802.1 GB 0 0 1481545260

15:21

12-Дек-16

Российские фильмы до 2016 ·· Дуэлянт (Алексей Мизгирёв) [2016, драма, WEB-DLRip-AVC] Galfimbul 14866732021.38 GB 0 0 1477988093

11:14

1-Ноя-16

Российские фильмы до 2016 ·· Дуэлянт (Алексей Мизгирёв) [2016, Драма, WEB-DLRip-AVC] Galfimbul 15653141101.46 GB 0 0 1477978692

08:38

1-Ноя-16

Российские фильмы до 2016 ·· Дуэлянт (Алексей Мизгирёв) [2016, Драма, WEB-DLRip] Galfimbul 781096960745 MB 0 0 1477865110

01:05

31-Окт-16

Российские фильмы 2016-2018 (Новинки русского кино) ·· Дуэлянт (Алексей Мизгирёв) [2016, драма, WEB-DLRip] iTunes Galfimbul 15618478081.45 GB 0 0 1477860019

23:40

30-Окт-16

Российские фильмы 2016-2018 (Новинки русского кино) ·· Дуэлянт (Алексей Мизгирёв) [2016, драма, WEB-DL 1080p] iTunes Galfimbul 38904489423.62 GB 0 0 1477860009

23:40

30-Окт-16

Российские фильмы 2016-2018 (Новинки русского кино) ·· Дуэлянт (Алексей Мизгирёв) [2016, драма, WEB-DL 720p] iTunes Galfimbul 34649338273.23 GB 0 0 1477860002

23:40

30-Окт-16

Зарубежные фильмы до 2016 ·· Дуэлянты / The Duellists (Ридли Скотт / Ridley Scott) [1977, Великобритания, Драма, BDRip] MVO + Original (Eng) + Sub (Rus, Eng) L 19026437321.77 GB 0 0 1362580320

17:32

6-Мар-13

Еще никто не оставлял запись к записи скачать торрент Дуэлянт . Будь первым!

!Обратная связь