Mitsuboshi Colors | Watch now | Find Your Why

Скачать через торрент Джентльмен грабитель Electric Slide Фильм бесплатно в хорошем качестве torrent

Скачивайте на UnionPeer.org фильмы через торрент без регистрации. Новинки кино в хорошем качестве через торрент. На UnionPeer.org можно скачать через торрент фильмы 2014 и 2015 годов. Самые новые фильмы.

Скачать торрент Джентльмен грабитель Electric Slide бесплатно через .torrent фильм мультфильм сериал

Статистика раздачи
Размер:  1.37 GB   |    Зарегистрирован:  2 года 7 месяцев   |    .torrent скачан:  46 раз   |   
Раздают:  1  
   
загрузка...
 
Автор Сообщение

Galfimbul

avatar Galfimbul


Джентльмен грабитель

Electric Slide
Год выпуска: 2014
Страна: США
Жанр: Боевик, Триллер, Драма, Криминал
Продолжительность: 01:31:01
Перевод: Профессиональное (дублированный) [Line]
Субтитры: нет
Оригинальная аудиодорожка: нет
Режиссер: Тристан Паттерсон / Tristan Patterson
В ролях: Джим Стёрджесс, Изабель Лукас, Хлоя Севиньи, Патриция Аркетт, Кристофер Ламберт, Винесса Шоу, Констанс Ву, Мэгалин Эчиканвоке, Риз Койро, Кортни Палм
Описание: Речь в фильме пойдет об Эдди Додсоне, владельце мебельного магазина на Мелроуз Авеню в Лос-Анджелесе. Он был знаком со многими знаменитостями, вёл праздный образ жизни — веселился и устраивал вечеринки. Но однажды он влюбился, и чтобы произвести впечатление на любимую девушку, решил ограбить банк.
Дополнительно: Звук местами со скрипами и плавает, видимо криво почистили, но на данный момент лучшего нету.

Семпл: http://multi-up.com/1077585
Качество видео: WEB-DLRip (исходник WEB-DL 720p)
Формат видео: AVI

Видео: 720x304 (2.37:1), 25 fps, XviD build 50 ~1947 kbps avg, 0.36 bit/pixel
Аудио: 48 kHz, AC3 Dolby Digital, 2/0 (L,R) ch, ~192 kbps
General
Complete name : Electric.Slide.2014.D.WEB-DLRip.avi
Format : AVI
Format/Info : Audio Video Interleave
File size : 1.37 GiB
Duration : 1h 31mn
Overall bit rate : 2 149 Kbps
Writing application : VirtualDubMod 1.5.10.2 (build 2540/release)
Writing library : VirtualDubMod build 2540/release

Video
ID : 0
Format : MPEG-4 Visual
Format profile : Advanced [email protected]
Format settings, BVOP : 2
Format settings, QPel : No
Format settings, GMC : No warppoints
Format settings, Matrix : Default (MPEG)
Codec ID : XVID
Codec ID/Hint : XviD
Duration : 1h 31mn
Bit rate : 1 948 Kbps
Width : 720 pixels
Height : 304 pixels
Display aspect ratio : 2.35:1
Frame rate : 25.000 fps
Color space : YUV
Chroma subsampling : 4:2:0
Bit depth : 8 bits
Scan type : Progressive
Compression mode : Lossy
Bits/(Pixel*Frame) : 0.356
Stream size : 1.24 GiB (91%)
Writing library : XviD 1.2.1 (UTC 2008-12-04)

Audio
ID : 1
Format : AC-3
Format/Info : Audio Coding 3
Mode extension : CM (complete main)
Format settings, Endianness : Big
Codec ID : 2000
Duration : 1h 31mn
Bit rate mode : Constant
Bit rate : 192 Kbps
Channel(s) : 2 channels
Channel positions : Front: L R
Sampling rate : 48.0 KHz
Compression mode : Lossy
Stream size : 125 MiB (9%)
Alignment : Split accross interleaves
Interleave, duration : 40 ms (1.00 video frame)
Interleave, preload duratio : 500 ms


Трекер:  [ 03-Дек-2015 10:00 ]

  

Скачать .torrent

Размер .torrent файла 14 KB


Размер: 1.37 GB
Хэш (hash) релиза: febc4326e087b4253dfd3e7b27a054f5d9305524
Подписка на обновления:

Еще никто не оставлял запись к записи скачать торрент Джентльмен грабитель Electric Slide . Будь первым!

!Обратная связь