Contatti | Czech Republic | 624 Telecharger Absolutely Fabulous Gratuit Absolutely Fabulous: The Movie is an upcoming 2016 British comedy film directed by Mandie Fletcher and written by Jennifer Saunders, based on...

Скачать через торрент Пожилые грабители Escarface Фильм бесплатно в хорошем качестве torrent

Скачивайте на UnionPeer.org фильмы через торрент без регистрации. Новинки кино в хорошем качестве через торрент. На UnionPeer.org можно скачать через торрент фильмы 2014 и 2015 годов. Самые новые фильмы.

Скачать торрент Пожилые грабители Escarface бесплатно через .torrent фильм мультфильм сериал

Статистика раздачи
Размер:  88 MB   |    Зарегистрирован:  4 года   |    .torrent скачан:  45 раз   |   
Раздают:  1  
   
загрузка...
 
Автор Сообщение

Galfimbul

avatar Galfimbul


Пожилые грабители
Escarface
Год выпуска: 2013
Страна: Франция Supinfocom
Жанр: короткометражный анимационный фильм
Продолжительность: 00:04:55
Перевод: не требуется
субтитры: отсутствуют
Режиссёр: Пьер Плузо : Pierre Plouzeau, Ева Нэво : Eva Navaux, Винсент Меунир : Vincent Meunier, Бурсу Санкур : Burcu Sankur, Лионель Арнольд : Lionel Arnold, Дарио Сабато : Dario Sabato
Описание: Позитивный мультфильм о том, как двое пенсионеров решили ограбить банк, что бы найти денег на путешествии в музей.
релиз:
Качество: WEBRip
Формат: AVI
Видео кодек: XviD
Аудио кодек: MP3
Видео: 720x400, (1.80:1), 24.000 fps, XviD build 65 ~2353 kbps avg, 0.34 bit/pixel
Аудио: 48 kHz, MPEG Layer 3, 2 ch, ~128.00 kbps avg
Общее
Полное имя : C:\Пожилые грабители\Escarface.2013.WEBRip.avi
Формат : AVI
Формат/Информация : Audio Video Interleave
Размер файла : 87,7 Мбайт
Продолжительность : 4 м. 55 с.
Общий поток : 2492 Кбит/сек
Название фильма : Escarface.2013.WEBRip -Azureus-
Программа кодирования : VirtualDubMod 1.5.10.3 (build 2550/release)
Библиотека кодирования : VirtualDubMod build 2550/release

Видео
Идентификатор : 0
Формат : MPEG-4 Visual
Профиль формата : Advanced Simple@L5
Параметр BVOP формата : 2
Параметр QPel формата : Нет
Параметр GMC формата : Без точки перехода
Параметр матрицы формата : Выборочная
Идентификатор кодека : XVID
Идентификатор кодека/Подсказка : XviD
Продолжительность : 4 м. 55 с.
Битрейт : 2354 Кбит/сек
Ширина : 720 пикселей
Высота : 400 пикселей
Соотношение сторон : 16:9
Частота кадров : 24,000 кадра/сек
Цветовое пространство : YUV
Субдискретизация насыщенности : 4:2:0
Битовая глубина : 8 бит
Тип развёртки : Прогрессивная
Метод сжатия : С потерями
Бит/(Пиксели*Кадры) : 0.341
Размер потока : 82,9 Мбайт (94%)
Библиотека кодирования : XviD 65

Аудио
Идентификатор : 1
Формат : MPEG Audio
Версия формата : Version 1
Профиль формата : Layer 3
Режим : Joint stereo
Расширение режима : MS Stereo
Идентификатор кодека : 55
Идентификатор кодека/Подсказка : MP3
Продолжительность : 4 м. 55 с.
Вид битрейта : Постоянный
Битрейт : 128 Кбит/сек
Каналы : 2 канала
Частота : 48,0 КГц
Метод сжатия : С потерями
Размер потока : 4,51 Мбайт (5%)
Выравнивание : Соединение по промежуткам
Продолжительность промежутка : 42 мс. (1,00 видеокадр)
Время предзагрузки промежутка : 504 мс.
Библиотека кодирования : LAME3.99r
Настройки программы : -m j -V 4 -q 3 -lowpass 17 -b 128
____________________________________________
<div class="post-box">Стою на раздаче до 5 дней.
Просьба скачавшим как можно дольше не покидать раздачу!
ВСЕМ ПРИЯТНОГО ПРОСМОТРА!</div>
_________________________________________

Трекер:  [ 08-Окт-2014 13:30 ]

  

Скачать .torrent

Размер .torrent файла 14 KB


Размер: 88 MB
Хэш (hash) релиза: 77fcd3a3e79a9f662801f731d905775ee4fc69fa
Подписка на обновления:

Еще никто не оставлял запись к записи скачать торрент Пожилые грабители Escarface . Будь первым!

!Обратная связь